Hoşgeldiniz, Bu forumu ilk ziyaretiniz mi? Mesaj yazabilmek için kayıt olun.
  • Login:

Divxn.com, film ve dizi indirme portalı´e Hoşgeldiniz.

Bu ilk ziyaretiniz ise, lütfen Yardım dosyasına göz atın. Forumdan tam anlamıyla yararlanmak için ücretsiz Kayıt olabilirsiniz.

1 den 2´e kadar. Toplam 2 Sayfa bulundu
Like Tree2Likes
  • 1 Post By DETRATAUS
  • 1 Post By Erdem TERZİ

Konu: Hayatın Bedeli - Worth (2020) ~ Netflix-Download 1080P [Türkçe | İngilizce Dublaj ve Altyazı Seçenekli *forced*]

  1. #1
    Senior Member
    Üyelik tarihi
    14-06-2022
    Mesajlar
    2.600
    Mentioned
    0 Post(s)

    Exclamation Hayatın Bedeli - Worth (2020) ~ Netflix-Download 1080P [Türkçe | İngilizce Dublaj ve Altyazı Seçenekli *forced*]







    [Sadece kayıtlı kullanıcılar linkleri görebilirler. ]

    Dünya Ticaret Merkezi ve Pentagon'a yapılan korkunç 2001 saldırılarının ardından, ünlü arabulucu avukat Kenneth Feinberg, 11 Eylül Mağdur Tazminat Fonu'nun başına getirilir. Kenneth Feinberg ve şirketinin operasyon şefi Camille Biros, trajedinin kurbanlarına finansal kaynak tahsis etmekle görevlendirilr. Yitirilen hayatlara bedel biçmeye çalışan Feinberg, bu süreçte duygusal bir hesaplaşmayla karşı karşıya kalır.







    [Sadece kayıtlı kullanıcılar linkleri görebilirler. ] [Sadece kayıtlı kullanıcılar linkleri görebilirler. ]


    General
    Complete name : X:\Netflix\Worth.mkv
    Format : Matroska
    Format version : Version 4 / Version 2
    File size : 1.43 GiB
    Duration : 1 h 58 min
    Overall bit rate mode : Variable
    Overall bit rate : 1 724 kb/s
    Frame rate : 23.976 FPS
    Movie name : Worth
    Encoded date : 2023-09-03 04:27:39 UTC
    Writing application : mkvmerge v68.0.0 ('The Curtain') 64-bit
    Writing library : libebml v1.4.2 + libmatroska v1.6.4

    Video
    ID : 1
    Format : AVC
    Format/Info : Advanced Video Codec
    Format profile : High@L4
    Format settings : CABAC / 4 Ref Frames
    Format settings, CABAC : Yes
    Format settings, Reference fra : 4 frames
    Codec ID : V_MPEG4/ISO/AVC
    Duration : 1 h 58 min
    Bit rate mode : Variable
    Bit rate : 1 338 kb/s
    Maximum bit rate : 20.0 Mb/s
    Width : 1 920 pixels
    Height : 1 080 pixels
    Display aspect ratio : 16:9
    Frame rate mode : Constant
    Frame rate : 23.976 (24000/1001) FPS
    Color space : YUV
    Chroma subsampling : 4:2:0
    Bit depth : 8 bits
    Scan type : Progressive
    Bits/(Pixel*Frame) : 0.027
    Stream size : 1.11 GiB (78%)
    Default : Yes
    Forced : No

    Audio #1
    ID : 2
    Format : AAC LC SBR
    Format/Info : Advanced Audio Codec Low Complexity with Spectral Band Replication
    Commercial name : HE-AAC
    Format settings : Explicit
    Codec ID : A_AAC-2
    Duration : 1 h 58 min
    Bit rate : 192 kb/s
    Channel(s) : 6 channels
    Channel layout : C L R Ls Rs LFE
    Sampling rate : 48.0 kHz / 24.0 kHz
    Frame rate : 23.438 FPS (1024 SPF)
    Compression mode : Lossy
    Stream size : 163 MiB (11%)
    Title : English [Original]
    Language : English
    Default : No
    Forced : No

    Audio #2
    ID : 3
    Format : AAC LC SBR
    Format/Info : Advanced Audio Codec Low Complexity with Spectral Band Replication
    Commercial name : HE-AAC
    Format settings : Explicit
    Codec ID : A_AAC-2
    Duration : 1 h 58 min
    Bit rate : 192 kb/s
    Channel(s) : 6 channels
    Channel layout : C L R Ls Rs LFE
    Sampling rate : 48.0 kHz / 24.0 kHz
    Frame rate : 23.438 FPS (1024 SPF)
    Compression mode : Lossy
    Stream size : 163 MiB (11%)
    Title : Turkish
    Language : Turkish
    Default : Yes
    Forced : No

    Text #1
    ID : 4
    Format : UTF-8
    Codec ID : S_TEXT/UTF8
    Codec ID/Info : UTF-8 Plain Text
    Duration : 1 h 55 min
    Bit rate : 81 b/s
    Frame rate : 0.276 FPS
    Count of elements : 1918
    Stream size : 68.8 KiB (0%)
    Title : English [CC]
    Language : English
    Default : Yes
    Forced : No

    Text #2
    ID : 5
    Format : UTF-8
    Codec ID : S_TEXT/UTF8
    Codec ID/Info : UTF-8 Plain Text
    Duration : 1 h 56 min
    Bit rate : 66 b/s
    Frame rate : 0.245 FPS
    Count of elements : 1720
    Stream size : 56.7 KiB (0%)
    Title : Turkish
    Language : Turkish
    Default : No
    Forced : No

    Text #3
    ID : 6
    Format : UTF-8
    Codec ID : S_TEXT/UTF8
    Codec ID/Info : UTF-8 Plain Text
    Duration : 1 h 56 min
    Bit rate : 3 b/s
    Frame rate : 0.014 FPS
    Count of elements : 95
    Stream size : 2.91 KiB (0%)
    Title : Turkish [ForcedNarrative]
    Language : Turkish
    Default : No
    Forced : No
    Dikkat! : Bu İçerik Eski!
    Bu İçerik 90 günden daha eski. Linkler artık çalışmıyor olabilir.
    Erdem TERZİ likes this.

  2. #2
    Banned
    Üyelik tarihi
    15-05-2022
    Mesajlar
    1.906
    Mentioned
    0 Post(s)
    Çok iyi bir film, kaçırmayın derim!
    DETRATAUS likes this.

 

 

Benzer Konular

  1. Cevaplar: 1
    Son Mesaj: 03-11-2023, 07:57
  2. Cevaplar: 1
    Son Mesaj: 03-11-2023, 07:57
  3. Cevaplar: 1
    Son Mesaj: 03-11-2023, 07:56
  4. Cevaplar: 1
    Son Mesaj: 03-11-2023, 07:56
  5. Cevaplar: 1
    Son Mesaj: 03-11-2023, 07:56

Yetkileriniz

  • Yeni Mesaj yazma yetkiniz Aktif değil dir.
  • Mesajlara Cevap verme yetkiniz aktif değil dir.
  • Eklenti ekleme yetkiniz Aktif değil dir.
  • Kendi Mesajınızı değiştirme yetkiniz Aktif değildir dir.
  •  
www.divxd.us