Hoşgeldiniz, Bu forumu ilk ziyaretiniz mi? Mesaj yazabilmek için kayıt olun.
  • Login:

Divxn.com, film ve dizi indirme portalı´e Hoşgeldiniz.

Bu ilk ziyaretiniz ise, lütfen Yardım dosyasına göz atın. Forumdan tam anlamıyla yararlanmak için ücretsiz Kayıt olabilirsiniz.

1 den 2´e kadar. Toplam 2 Sayfa bulundu
  1. #1
    Senior Member
    Üyelik tarihi
    14-06-2022
    Mesajlar
    2.603
    Mentioned
    0 Post(s)

    Exclamation Hava Kuvvetleri Bir (1997) ~ Disney Plus - Download 1080P [Türkçe | İngilizce | Almanca Dublaj ve Altyazı Seçenekli *Forced*]









    [Sadece kayıtlı kullanıcılar linkleri görebilirler. ]

    Amerikan başkanı Rusya seyahati esnasında önemli bir konuşma yapar ve artık teröristlerle hükümetin hiçbir şekilde pazarlık yapmayacağını anlatır. Rusya gezisi dönüşünde başkanın özel üçağı Rus teröristler tarafından kaçırılır. Başkanın tüm ailesi bu uçaktadır ve teröristler eğer başkan kendi istediklerini yapmazsa herkesi öldüreceklerini açıklarlar. Ancak teröristlerin bilmedikleri bir şey vardır. Başkan yıllarını Vietnam'da geçirmiş olan, ödüllü bir eski askerdir.







    [Sadece kayıtlı kullanıcılar linkleri görebilirler. ] [Sadece kayıtlı kullanıcılar linkleri görebilirler. ]


    General
    Complete name : X:\Disney+\Air Force One.mkv
    Format : Matroska
    Format version : Version 4 / Version 2
    File size : 7.27 GiB
    Duration : 2 h 4 min
    Overall bit rate mode : Variable
    Overall bit rate : 8 359 kb/s
    Frame rate : 23.976 FPS
    Movie name : Air Force One
    Encoded date : 2023-09-05 09:07:10 UTC
    Writing application : mkvmerge v68.0.0 ('The Curtain') 64-bit
    Writing library : libebml v1.4.2 + libmatroska v1.6.4
    Cover : Yes
    Attachments : cover.jpg

    Video
    ID : 1
    Format : AVC
    Format/Info : Advanced Video Codec
    Format profile : High@L4
    Format settings : CABAC / 4 Ref Frames
    Format settings, CABAC : Yes
    Format settings, Reference fra : 4 frames
    Codec ID : V_MPEG4/ISO/AVC
    Duration : 2 h 4 min
    Bit rate mode : Variable
    Bit rate : 7 588 kb/s
    Maximum bit rate : 12.7 Mb/s
    Width : 1 920 pixels
    Height : 1 080 pixels
    Display aspect ratio : 16:9
    Frame rate mode : Constant
    Frame rate : 23.976 (24000/1001) FPS
    Color space : YUV
    Chroma subsampling : 4:2:0
    Bit depth : 8 bits
    Scan type : Progressive
    Bits/(Pixel*Frame) : 0.153
    Stream size : 6.60 GiB (91%)
    Title : Air Force One
    Default : Yes
    Forced : No
    Tagged date : 2023-09-06 03:26:12.350
    Color range : Limited
    Color primaries : BT.709
    Transfer characteristics : BT.709
    Matrix coefficients : BT.709
    ACTOR : Gwendoline Yeo
    ACTOR/CHARACTER : FBI Agent (uncredited)
    ART_DIRECTOR : Carl J. Stensel, Carlos Aldana
    COSTUME_DESIGNER : Erica Edell Phillips
    DIRECTOR : Wolfgang Petersen
    DIRECTOR_OF_PHOTOGRAPHY : Michael Ballhaus
    Description : Russian terrorists conspire to hijack the aircraft with the president and his family on board. The commander in chief finds himself facing an impossible predicament: give in to the terrorists and sacrifice his family, or risk everything to uphold his principles - and the integrity of the nation.
    EDITED_BY : Richard Francis-Bruce
    EXECUTIVE_PRODUCER : David V. Lester, Marc Abraham, Thomas A. Bliss
    GENRE : Action, Thriller
    IMDB_ID : tt0118571
    PRODUCER : Wolfgang Petersen, Gail Katz, Armyan Bernstein, Jonathan Shestack
    PRODUCTION_DESIGNER : William Sandell
    Released date : 1997-07-25
    SOUND_ENGINEER : David Young
    TMDB_ID : 9772

    Audio #1
    ID : 2
    Format : E-AC-3
    Format/Info : Enhanced AC-3
    Commercial name : Dolby Digital Plus
    Codec ID : A_EAC3
    Duration : 2 h 4 min
    Bit rate mode : Constant
    Bit rate : 256 kb/s
    Channel(s) : 6 channels
    Channel layout : L R C LFE Ls Rs
    Sampling rate : 48.0 kHz
    Frame rate : 31.250 FPS (1536 SPF)
    Compression mode : Lossy
    Stream size : 228 MiB (3%)
    Title : Türkçe
    Language : Turkish
    Service kind : Complete Main
    Default : Yes
    Forced : No

    Audio #2
    ID : 3
    Format : E-AC-3
    Format/Info : Enhanced AC-3
    Commercial name : Dolby Digital Plus
    Codec ID : A_EAC3
    Duration : 2 h 4 min
    Bit rate mode : Constant
    Bit rate : 256 kb/s
    Channel(s) : 6 channels
    Channel layout : L R C LFE Ls Rs
    Sampling rate : 48.0 kHz
    Frame rate : 31.250 FPS (1536 SPF)
    Compression mode : Lossy
    Stream size : 228 MiB (3%)
    Title : English
    Language : English
    Service kind : Complete Main
    Default : No
    Forced : No

    Audio #3
    ID : 4
    Format : E-AC-3
    Format/Info : Enhanced AC-3
    Commercial name : Dolby Digital Plus
    Codec ID : A_EAC3
    Duration : 2 h 4 min
    Bit rate mode : Constant
    Bit rate : 256 kb/s
    Channel(s) : 6 channels
    Channel layout : L R C LFE Ls Rs
    Sampling rate : 48.0 kHz
    Frame rate : 31.250 FPS (1536 SPF)
    Compression mode : Lossy
    Stream size : 228 MiB (3%)
    Title : Deutsch
    Language : German
    Service kind : Complete Main
    Default : No
    Forced : No

    Text #1
    ID : 5
    Format : UTF-8
    Codec ID : S_TEXT/UTF8
    Codec ID/Info : UTF-8 Plain Text
    Duration : 1 h 38 min
    Bit rate : 1 b/s
    Frame rate : 0.010 FPS
    Count of elements : 56
    Stream size : 1.34 KiB (0%)
    Title : de--forced--
    Language : German
    Default : No
    Forced : No

    Text #2
    ID : 6
    Format : UTF-8
    Codec ID : S_TEXT/UTF8
    Codec ID/Info : UTF-8 Plain Text
    Duration : 1 h 54 min
    Bit rate : 43 b/s
    Frame rate : 0.150 FPS
    Count of elements : 1027
    Stream size : 36.7 KiB (0%)
    Title : Deutsch
    Language : German
    Default : No
    Forced : No

    Text #3
    ID : 7
    Format : UTF-8
    Codec ID : S_TEXT/UTF8
    Codec ID/Info : UTF-8 Plain Text
    Duration : 1 h 17 min
    Bit rate : 2 b/s
    Frame rate : 0.012 FPS
    Count of elements : 54
    Stream size : 1.21 KiB (0%)
    Title : en--forced--
    Language : English
    Default : No
    Forced : No

    Text #4
    ID : 8
    Format : UTF-8
    Codec ID : S_TEXT/UTF8
    Codec ID/Info : UTF-8 Plain Text
    Duration : 1 h 56 min
    Bit rate : 55 b/s
    Frame rate : 0.183 FPS
    Count of elements : 1280
    Stream size : 46.9 KiB (0%)
    Title : English (UK)
    Default : No
    Forced : No

    Text #5
    ID : 9
    Format : UTF-8
    Codec ID : S_TEXT/UTF8
    Codec ID/Info : UTF-8 Plain Text
    Duration : 1 h 53 min
    Bit rate : 55 b/s
    Frame rate : 0.175 FPS
    Count of elements : 1188
    Stream size : 46.1 KiB (0%)
    Title : English [CC]
    Language : English
    Default : Yes
    Forced : No

    Text #6
    ID : 10
    Format : UTF-8
    Codec ID : S_TEXT/UTF8
    Codec ID/Info : UTF-8 Plain Text
    Duration : 1 h 51 min
    Bit rate : 0 b/s
    Frame rate : 0.003 FPS
    Count of elements : 23
    Stream size : 563 Bytes (0%)
    Title : tr--forced--
    Language : Turkish
    Default : No
    Forced : No

    Text #7
    ID : 11
    Format : UTF-8
    Codec ID : S_TEXT/UTF8
    Codec ID/Info : UTF-8 Plain Text
    Duration : 1 h 56 min
    Bit rate : 58 b/s
    Frame rate : 0.175 FPS
    Count of elements : 1224
    Stream size : 49.6 KiB (0%)
    Title : Türkçe
    Language : Turkish
    Default : No
    Forced : No
    Dikkat! : Bu İçerik Eski!
    Bu İçerik 90 günden daha eski. Linkler artık çalışmıyor olabilir.
    Erdem TERZİ likes this.

  2. #2
    Banned
    Üyelik tarihi
    15-05-2022
    Mesajlar
    1.909
    Mentioned
    0 Post(s)
    Harika bir film! Kimse bu filmi kaçırmasın derim!

 

 

Benzer Konular

  1. Cevaplar: 1
    Son Mesaj: 03-11-2023, 07:56
  2. Cevaplar: 0
    Son Mesaj: 20-08-2023, 09:24
  3. Cevaplar: 0
    Son Mesaj: 20-08-2023, 09:20
  4. Cevaplar: 0
    Son Mesaj: 20-08-2023, 09:13
  5. Cevaplar: 0
    Son Mesaj: 19-07-2023, 08:25

Yetkileriniz

  • Yeni Mesaj yazma yetkiniz Aktif değil dir.
  • Mesajlara Cevap verme yetkiniz aktif değil dir.
  • Eklenti ekleme yetkiniz Aktif değil dir.
  • Kendi Mesajınızı değiştirme yetkiniz Aktif değildir dir.
  •  
www.divxd.us