Hoşgeldiniz, Bu forumu ilk ziyaretiniz mi? Mesaj yazabilmek için kayıt olun.
  • Login:

Divxn.com, film ve dizi indirme portalı´e Hoşgeldiniz.

Bu ilk ziyaretiniz ise, lütfen Yardım dosyasına göz atın. Forumdan tam anlamıyla yararlanmak için ücretsiz Kayıt olabilirsiniz.

1 den 2´e kadar. Toplam 2 Sayfa bulundu
  1. #1
    Senior Member
    Üyelik tarihi
    14-06-2022
    Mesajlar
    2.603
    Mentioned
    0 Post(s)

    Exclamation Carl'ın Randevusu (Kısa Film - 2023) ~ DisneyPlus - Download 720P [Türkçe | İngilizce | Almanca Dublaj ve Altyazı Seçenekli *forced*]





    [Sadece kayıtlı kullanıcılar linkleri görebilirler. ]

    Carl'ın bir kadınla çıkmaya hazırlandığı görülüyor. Carl randevu konusunda gergindir ama konuşan köpeği Dug (Bob Peterson) ona yardım etmek için oradadır. Dug, Carl'a randevuda nasıl giyineceği ve nasıl davranacağı konusunda bazı tavsiyeler verir.

    "Carl's Date" aşk, kayıp ve devam etme hakkında iç açıcı bir hikaye. "Yukarı Bak" hayranları ve genel olarak Pixar hayranları için mutlaka izlenmesi gereken bir film.







    [Sadece kayıtlı kullanıcılar linkleri görebilirler. ] [Sadece kayıtlı kullanıcılar linkleri görebilirler. ]


    General
    Complete name : X:\Disney+\Carl’s Date.mkv
    Format : Matroska
    Format version : Version 4 / Version 2
    File size : 293 MiB
    Duration : 8 min 44 s
    Overall bit rate mode : Variable
    Overall bit rate : 4 683 kb/s
    Frame rate : 23.976 FPS
    Movie name : Carl’s Date
    Encoded date : 2023-09-13 09:34:17 UTC
    Writing application : mkvmerge v68.0.0 ('The Curtain') 64-bit
    Writing library : libebml v1.4.2 + libmatroska v1.6.4

    Video
    ID : 1
    Format : AVC
    Format/Info : Advanced Video Codec
    Format profile : [email protected]
    Format settings : CABAC / 4 Ref Frames
    Format settings, CABAC : Yes
    Format settings, Reference fra : 4 frames
    Codec ID : V_MPEG4/ISO/AVC
    Duration : 8 min 44 s
    Bit rate mode : Variable
    Bit rate : 3 400 kb/s
    Maximum bit rate : 6 375 kb/s
    Width : 1 280 pixels
    Height : 720 pixels
    Display aspect ratio : 16:9
    Frame rate mode : Constant
    Frame rate : 23.976 (24000/1001) FPS
    Color space : YUV
    Chroma subsampling : 4:2:0
    Bit depth : 8 bits
    Scan type : Progressive
    Bits/(Pixel*Frame) : 0.154
    Stream size : 212 MiB (73%)
    Default : Yes
    Forced : No
    Color range : Limited
    Color primaries : BT.709
    Transfer characteristics : BT.709
    Matrix coefficients : BT.709

    Audio #1
    ID : 2
    Format : E-AC-3
    Format/Info : Enhanced AC-3
    Commercial name : Dolby Digital Plus
    Codec ID : A_EAC3
    Duration : 8 min 44 s
    Bit rate mode : Constant
    Bit rate : 256 kb/s
    Channel(s) : 6 channels
    Channel layout : L R C LFE Ls Rs
    Sampling rate : 48.0 kHz
    Frame rate : 31.250 FPS (1536 SPF)
    Compression mode : Lossy
    Stream size : 16.0 MiB (5%)
    Title : Türkçe
    Language : Turkish
    Service kind : Complete Main
    Default : Yes
    Forced : No

    Audio #2
    ID : 3
    Format : E-AC-3 JOC
    Format/Info : Enhanced AC-3 with Joint Object Coding
    Commercial name : Dolby Digital Plus with Dolby Atmos
    Codec ID : A_EAC3
    Duration : 8 min 44 s
    Bit rate mode : Constant
    Bit rate : 768 kb/s
    Channel(s) : 6 channels
    Channel layout : L R C LFE Ls Rs
    Sampling rate : 48.0 kHz
    Frame rate : 31.250 FPS (1536 SPF)
    Compression mode : Lossy
    Stream size : 48.0 MiB (16%)
    Title : English
    Language : English
    Service kind : Complete Main
    Default : No
    Forced : No
    Complexity index : 16
    Number of dynamic objects : 15
    Bed channel count : 1 channel
    Bed channel configuration : LFE

    Audio #3
    ID : 4
    Format : E-AC-3
    Format/Info : Enhanced AC-3
    Commercial name : Dolby Digital Plus
    Codec ID : A_EAC3
    Duration : 8 min 44 s
    Bit rate mode : Constant
    Bit rate : 256 kb/s
    Channel(s) : 6 channels
    Channel layout : L R C LFE Ls Rs
    Sampling rate : 48.0 kHz
    Frame rate : 31.250 FPS (1536 SPF)
    Compression mode : Lossy
    Stream size : 16.0 MiB (5%)
    Title : Deutsch
    Language : German
    Service kind : Complete Main
    Default : No
    Forced : No

    Text #1
    ID : 5
    Format : UTF-8
    Codec ID : S_TEXT/UTF8
    Codec ID/Info : UTF-8 Plain Text
    Duration : 49 s 132 ms
    Bit rate : 6 b/s
    Frame rate : 0.061 FPS
    Count of elements : 3
    Stream size : 41.0 Bytes (0%)
    Title : de--forced--
    Language : German
    Default : No
    Forced : No

    Text #2
    ID : 6
    Format : UTF-8
    Codec ID : S_TEXT/UTF8
    Codec ID/Info : UTF-8 Plain Text
    Duration : 8 min 34 s
    Bit rate : 65 b/s
    Frame rate : 0.286 FPS
    Count of elements : 147
    Stream size : 4.08 KiB (0%)
    Title : Deutsch
    Language : German
    Default : No
    Forced : No

    Text #3
    ID : 7
    Format : UTF-8
    Codec ID : S_TEXT/UTF8
    Codec ID/Info : UTF-8 Plain Text
    Duration : 8 min 7 s
    Bit rate : 66 b/s
    Frame rate : 0.333 FPS
    Count of elements : 162
    Stream size : 3.97 KiB (0%)
    Title : English [CC]
    Language : English
    Default : No
    Forced : No

    Text #4
    ID : 8
    Format : UTF-8
    Codec ID : S_TEXT/UTF8
    Codec ID/Info : UTF-8 Plain Text
    Duration : 49 s 132 ms
    Bit rate : 11 b/s
    Frame rate : 0.102 FPS
    Count of elements : 5
    Stream size : 70.0 Bytes (0%)
    Title : tr--forced--
    Language : Turkish
    Default : No
    Forced : No

    Text #5
    ID : 9
    Format : UTF-8
    Codec ID : S_TEXT/UTF8
    Codec ID/Info : UTF-8 Plain Text
    Duration : 8 min 34 s
    Bit rate : 61 b/s
    Frame rate : 0.296 FPS
    Count of elements : 152
    Stream size : 3.86 KiB (0%)
    Title : Türkçe
    Language : Turkish
    Default : Yes
    Forced : No
    Dikkat! : Bu İçerik Eski!
    Bu İçerik 90 günden daha eski. Linkler artık çalışmıyor olabilir.
    Erdem TERZİ likes this.

  2. #2
    Banned
    Üyelik tarihi
    15-05-2022
    Mesajlar
    1.909
    Mentioned
    0 Post(s)
    Hadi yaaaa bu da mı vardı?!

 

 

Benzer Konular

  1. Cevaplar: 1
    Son Mesaj: 07-09-2023, 15:40
  2. Cevaplar: 1
    Son Mesaj: 06-09-2023, 23:00
  3. Cevaplar: 1
    Son Mesaj: 06-09-2023, 22:59
  4. Cevaplar: 0
    Son Mesaj: 20-08-2023, 09:20

Yetkileriniz

  • Yeni Mesaj yazma yetkiniz Aktif değil dir.
  • Mesajlara Cevap verme yetkiniz aktif değil dir.
  • Eklenti ekleme yetkiniz Aktif değil dir.
  • Kendi Mesajınızı değiştirme yetkiniz Aktif değildir dir.
  •  
www.divxd.us