Hoşgeldiniz, Bu forumu ilk ziyaretiniz mi? Mesaj yazabilmek için kayıt olun.
  • Login:

Divxn.com, film ve dizi indirme portalı´e Hoşgeldiniz.

Bu ilk ziyaretiniz ise, lütfen Yardım dosyasına göz atın. Forumdan tam anlamıyla yararlanmak için ücretsiz Kayıt olabilirsiniz.

1 den 2´e kadar. Toplam 2 Sayfa bulundu
Like Tree2Likes
  • 1 Post By DETRATAUS
  • 1 Post By Erdem TERZİ

Konu: İlk Öpücükte Aşk (2023) ~ NETFLIX - Download 1080P [Türkçe | İngilizce | Almanca Dublaj ve Altyazı Seçenekli *Forced*]

  1. #1
    Senior Member
    Üyelik tarihi
    14-06-2022
    Mesajlar
    2.600
    Mentioned
    0 Post(s)

    Exclamation İlk Öpücükte Aşk (2023) ~ NETFLIX - Download 1080P [Türkçe | İngilizce | Almanca Dublaj ve Altyazı Seçenekli *Forced*]







    [Sadece kayıtlı kullanıcılar linkleri görebilirler. ]

    16 yaşındaki Javier bir kızı ilk kez öptüğünde, romantik bir ilişkinin tüm geleceğini görebileceğini keşfeder. Bu kusursuz bir yetenek gibi görünse de yanlışlıkla en iyi arkadaşının kız arkadaşını öptüğünde her şey karmaşıklaşır.





    [Sadece kayıtlı kullanıcılar linkleri görebilirler. ] [Sadece kayıtlı kullanıcılar linkleri görebilirler. ]


    General
    Complete name : X:\Netflix\Love at First Kiss.mkv
    Format : Matroska
    Format version : Version 4 / Version 2
    File size : 2.61 GiB
    Duration : 1 h 36 min
    Overall bit rate mode : Variable
    Overall bit rate : 3 877 kb/s
    Frame rate : 24.000 FPS
    Movie name : Love at First Kiss
    Description : Javier can see the future... and he finally knows who the love of his life is. There's just one problem: It's his best friend's girlfriend.
    Writing application : Lavf58.29.100
    Writing library : Lavf58.29.100
    ErrorDetectionType : Per level 1
    Attachments : 81425117_1.jpg

    Video
    ID : 1
    Format : AVC
    Format/Info : Advanced Video Codec
    Format profile : Main@L4
    Format settings : CABAC / 1 Ref Frames
    Format settings, CABAC : Yes
    Format settings, Reference fra : 1 frame
    Codec ID : V_MPEG4/ISO/AVC
    Duration : 1 h 36 min
    Bit rate mode : Variable
    Bit rate : 1 880 kb/s
    Maximum bit rate : 6 000 kb/s
    Width : 1 920 pixels
    Height : 1 080 pixels
    Display aspect ratio : 16:9
    Frame rate mode : Constant
    Frame rate : 24.000 FPS
    Color space : YUV
    Chroma subsampling : 4:2:0
    Bit depth : 8 bits
    Scan type : Progressive
    Bits/(Pixel*Frame) : 0.038
    Stream size : 1.26 GiB (48%)
    Default : No
    Forced : No

    Audio #1
    ID : 2
    Format : E-AC-3
    Format/Info : Enhanced AC-3
    Commercial name : Dolby Digital Plus
    Codec ID : A_EAC3
    Duration : 1 h 36 min
    Bit rate mode : Constant
    Bit rate : 640 kb/s
    Channel(s) : 6 channels
    Channel layout : L R C LFE Ls Rs
    Sampling rate : 48.0 kHz
    Frame rate : 31.250 FPS (1536 SPF)
    Bit depth : 32 bits
    Compression mode : Lossy
    Delay relative to video : -83 ms
    Stream size : 440 MiB (17%)
    Title : Turkish
    Language : Turkish
    Service kind : Complete Main
    Default : No
    Forced : No

    Audio #2
    ID : 3
    Format : E-AC-3
    Format/Info : Enhanced AC-3
    Commercial name : Dolby Digital Plus
    Codec ID : A_EAC3
    Duration : 1 h 36 min
    Bit rate mode : Constant
    Bit rate : 640 kb/s
    Channel(s) : 6 channels
    Channel layout : L R C LFE Ls Rs
    Sampling rate : 48.0 kHz
    Frame rate : 31.250 FPS (1536 SPF)
    Bit depth : 32 bits
    Compression mode : Lossy
    Delay relative to video : -83 ms
    Stream size : 440 MiB (17%)
    Title : English
    Language : English
    Service kind : Complete Main
    Default : Yes
    Forced : No

    Audio #3
    ID : 4
    Format : E-AC-3
    Format/Info : Enhanced AC-3
    Commercial name : Dolby Digital Plus
    Codec ID : A_EAC3
    Duration : 1 h 36 min
    Bit rate mode : Constant
    Bit rate : 640 kb/s
    Channel(s) : 6 channels
    Channel layout : L R C LFE Ls Rs
    Sampling rate : 48.0 kHz
    Frame rate : 31.250 FPS (1536 SPF)
    Bit depth : 32 bits
    Compression mode : Lossy
    Delay relative to video : -83 ms
    Stream size : 440 MiB (17%)
    Title : German
    Language : German
    Service kind : Complete Main
    Default : No
    Forced : No

    Text #1
    ID : 5
    Format : ASS
    Codec ID : S_TEXT/ASS
    Codec ID/Info : Advanced Sub Station Alpha
    Duration : 1 h 35 min
    Compression mode : Lossless
    Title : Deutsch
    Language : German
    Default : No
    Forced : No

    Text #2
    ID : 6
    Format : ASS
    Codec ID : S_TEXT/ASS
    Codec ID/Info : Advanced Sub Station Alpha
    Duration : 1 h 30 min
    Compression mode : Lossless
    Title : English
    Language : English
    Default : No
    Forced : No

    Text #3
    ID : 7
    Format : ASS
    Codec ID : S_TEXT/ASS
    Codec ID/Info : Advanced Sub Station Alpha
    Duration : 1 h 25 min
    Compression mode : Lossless
    Title : English (Forced Narrative)
    Language : English
    Default : No
    Forced : No

    Text #4
    ID : 8
    Format : ASS
    Codec ID : S_TEXT/ASS
    Codec ID/Info : Advanced Sub Station Alpha
    Duration : 1 h 35 min
    Compression mode : Lossless
    Title : Deutsch (Forced Narrative)
    Language : German
    Default : No
    Forced : No

    Text #5
    ID : 9
    Format : ASS
    Codec ID : S_TEXT/ASS
    Codec ID/Info : Advanced Sub Station Alpha
    Duration : 1 h 35 min
    Compression mode : Lossless
    Title : Turkish
    Language : Turkish
    Default : No
    Forced : No

    Text #6
    ID : 10
    Format : ASS
    Codec ID : S_TEXT/ASS
    Codec ID/Info : Advanced Sub Station Alpha
    Duration : 1 h 30 min
    Compression mode : Lossless
    Title : English
    Language : English
    Default : No
    Forced : No

    Text #7
    ID : 11
    Format : ASS
    Codec ID : S_TEXT/ASS
    Codec ID/Info : Advanced Sub Station Alpha
    Duration : 1 h 35 min
    Compression mode : Lossless
    Title : English (CC)
    Language : English
    Default : No
    Forced : No

    Text #8
    ID : 12
    Format : ASS
    Codec ID : S_TEXT/ASS
    Codec ID/Info : Advanced Sub Station Alpha
    Duration : 1 h 35 min
    Compression mode : Lossless
    Title : Turkish (Forced Narrative)
    Language : Turkish
    Default : No
    Forced : No
    Dikkat! : Bu İçerik Eski!
    Bu İçerik 90 günden daha eski. Linkler artık çalışmıyor olabilir.
    Erdem TERZİ likes this.

  2. #2
    Banned
    Üyelik tarihi
    15-05-2022
    Mesajlar
    1.906
    Mentioned
    0 Post(s)
    Bu kaliteli paylaşım için teşekkür ederim!
    DETRATAUS likes this.

 

 

Benzer Konular

  1. Cevaplar: 1
    Son Mesaj: 16-09-2023, 20:16
  2. Cevaplar: 1
    Son Mesaj: 16-09-2023, 20:16
  3. Cevaplar: 1
    Son Mesaj: 16-09-2023, 04:08
  4. Cevaplar: 0
    Son Mesaj: 08-09-2023, 11:08
  5. Cevaplar: 1
    Son Mesaj: 06-09-2023, 22:59

Yetkileriniz

  • Yeni Mesaj yazma yetkiniz Aktif değil dir.
  • Mesajlara Cevap verme yetkiniz aktif değil dir.
  • Eklenti ekleme yetkiniz Aktif değil dir.
  • Kendi Mesajınızı değiştirme yetkiniz Aktif değildir dir.
  •  
www.divxd.us