Hoşgeldiniz, Bu forumu ilk ziyaretiniz mi? Mesaj yazabilmek için kayıt olun.
  • Login:

Divxn.com, film ve dizi indirme portalı´e Hoşgeldiniz.

Bu ilk ziyaretiniz ise, lütfen Yardım dosyasına göz atın. Forumdan tam anlamıyla yararlanmak için ücretsiz Kayıt olabilirsiniz.

1 den 2´e kadar. Toplam 2 Sayfa bulundu
  1. #1
    Senior Member
    Üyelik tarihi
    14-06-2022
    Mesajlar
    2.600
    Mentioned
    0 Post(s)

    Exclamation Ehrengard: Küçük Bir Romans (2023) ~ NETFLIX - Download 1080P [Türkçe | İngilizce | Almanca Dublaj ve Altyazı Seçenekli *Forced*]







    [Sadece kayıtlı kullanıcılar linkleri görebilirler. ]

    Babenhausen krallığının düşesi, aşk konusunda uzman olan genç Cazotte'den oğluna bir eş bulması için yardım etmesini ister. Cazotte, düşeşsin oğlu için uygun bir prenses bulmaya çalışacak ve ona içine kapanık olan prensi baştan çıkarmasının yolunu ve aşk sanatını öğretecektir. Ancak kraliyet ailesi taşınmak zorunda kalınca planı kısa sürede ters gider. Burada Ehrengard ile tanışan Cazotte, aşk ve baştan çıkarma hakkında bildiği her şeyi baştan öğrenir.







    [Sadece kayıtlı kullanıcılar linkleri görebilirler. ]


    General
    Complete name : X:\Netflix\Ehrengard_ The Art of Seduction.mkv
    Format : Matroska
    Format version : Version 4 / Version 2
    File size : 3.30 GiB
    Duration : 1 h 34 min
    Overall bit rate mode : Variable
    Overall bit rate : 4 991 kb/s
    Frame rate : 24.000 FPS
    Movie name : Ehrengard: The Art of Seduction
    Description : Appointed to teach the Grand Duchess's timid son the intricacies of seduction, a love connoisseur finds himself in a scandal — and a romance of his own.
    Writing application : Lavf58.29.100
    Writing library : Lavf58.29.100
    ErrorDetectionType : Per level 1
    Attachments : 81507021_1.jpg

    Video
    ID : 1
    Format : AVC
    Format/Info : Advanced Video Codec
    Format profile : Main@L4
    Format settings : CABAC / 1 Ref Frames
    Format settings, CABAC : Yes
    Format settings, Reference fra : 1 frame
    Codec ID : V_MPEG4/ISO/AVC
    Duration : 1 h 34 min
    Bit rate mode : Variable
    Bit rate : 2 972 kb/s
    Maximum bit rate : 6 000 kb/s
    Width : 1 920 pixels
    Height : 1 080 pixels
    Display aspect ratio : 16:9
    Frame rate mode : Constant
    Frame rate : 24.000 FPS
    Color space : YUV
    Chroma subsampling : 4:2:0
    Bit depth : 8 bits
    Scan type : Progressive
    Bits/(Pixel*Frame) : 0.060
    Stream size : 1.97 GiB (60%)
    Default : No
    Forced : No

    Audio #1
    ID : 2
    Format : E-AC-3
    Format/Info : Enhanced AC-3
    Commercial name : Dolby Digital Plus
    Codec ID : A_EAC3
    Duration : 1 h 34 min
    Bit rate mode : Constant
    Bit rate : 640 kb/s
    Channel(s) : 6 channels
    Channel layout : L R C LFE Ls Rs
    Sampling rate : 48.0 kHz
    Frame rate : 31.250 FPS (1536 SPF)
    Bit depth : 32 bits
    Compression mode : Lossy
    Delay relative to video : -83 ms
    Stream size : 434 MiB (13%)
    Title : Turkish
    Language : Turkish
    Service kind : Complete Main
    Default : No
    Forced : No

    Audio #2
    ID : 3
    Format : E-AC-3
    Format/Info : Enhanced AC-3
    Commercial name : Dolby Digital Plus
    Codec ID : A_EAC3
    Duration : 1 h 34 min
    Bit rate mode : Constant
    Bit rate : 640 kb/s
    Channel(s) : 6 channels
    Channel layout : L R C LFE Ls Rs
    Sampling rate : 48.0 kHz
    Frame rate : 31.250 FPS (1536 SPF)
    Bit depth : 32 bits
    Compression mode : Lossy
    Delay relative to video : -83 ms
    Stream size : 434 MiB (13%)
    Title : German
    Language : German
    Service kind : Complete Main
    Default : No
    Forced : No

    Audio #3
    ID : 4
    Format : E-AC-3
    Format/Info : Enhanced AC-3
    Commercial name : Dolby Digital Plus
    Codec ID : A_EAC3
    Duration : 1 h 34 min
    Bit rate mode : Constant
    Bit rate : 640 kb/s
    Channel(s) : 6 channels
    Channel layout : L R C LFE Ls Rs
    Sampling rate : 48.0 kHz
    Frame rate : 31.250 FPS (1536 SPF)
    Bit depth : 32 bits
    Compression mode : Lossy
    Delay relative to video : -83 ms
    Stream size : 434 MiB (13%)
    Title : English
    Language : English
    Service kind : Complete Main
    Default : Yes
    Forced : No

    Text #1
    ID : 5
    Format : ASS
    Codec ID : S_TEXT/ASS
    Codec ID/Info : Advanced Sub Station Alpha
    Duration : 1 h 32 min
    Compression mode : Lossless
    Title : Deutsch
    Language : German
    Default : No
    Forced : No

    Text #2
    ID : 6
    Format : ASS
    Codec ID : S_TEXT/ASS
    Codec ID/Info : Advanced Sub Station Alpha
    Duration : 1 h 27 min
    Compression mode : Lossless
    Title : British English
    Language : English
    Default : No
    Forced : No

    Text #3
    ID : 7
    Format : ASS
    Codec ID : S_TEXT/ASS
    Codec ID/Info : Advanced Sub Station Alpha
    Duration : 1 h 27 min
    Compression mode : Lossless
    Title : Deutsch
    Language : German
    Default : No
    Forced : No

    Text #4
    ID : 8
    Format : ASS
    Codec ID : S_TEXT/ASS
    Codec ID/Info : Advanced Sub Station Alpha
    Duration : 1 min 38 s
    Compression mode : Lossless
    Title : British English (Forced Narrative)
    Language : English
    Default : No
    Forced : No

    Text #5
    ID : 9
    Format : ASS
    Codec ID : S_TEXT/ASS
    Codec ID/Info : Advanced Sub Station Alpha
    Duration : 1 h 28 min
    Compression mode : Lossless
    Title : British English (CC)
    Language : English
    Default : No
    Forced : No

    Text #6
    ID : 10
    Format : ASS
    Codec ID : S_TEXT/ASS
    Codec ID/Info : Advanced Sub Station Alpha
    Duration : 1 h 27 min
    Compression mode : Lossless
    Title : Turkish
    Language : Turkish
    Default : No
    Forced : No

    Text #7
    ID : 11
    Format : ASS
    Codec ID : S_TEXT/ASS
    Codec ID/Info : Advanced Sub Station Alpha
    Duration : 1 h 32 min
    Compression mode : Lossless
    Title : Deutsch (Forced Narrative)
    Language : German
    Default : No
    Forced : No

    Text #8
    ID : 12
    Format : ASS
    Codec ID : S_TEXT/ASS
    Codec ID/Info : Advanced Sub Station Alpha
    Duration : 1 h 33 min
    Compression mode : Lossless
    Title : British English
    Language : English
    Default : No
    Forced : No

    Text #9
    ID : 13
    Format : ASS
    Codec ID : S_TEXT/ASS
    Codec ID/Info : Advanced Sub Station Alpha
    Duration : 1 min 38 s
    Compression mode : Lossless
    Title : Turkish (Forced Narrative)
    Language : Turkish
    Default : No
    Forced : No
    Dikkat! : Bu İçerik Eski!
    Bu İçerik 90 günden daha eski. Linkler artık çalışmıyor olabilir.
    Erdem TERZİ likes this.

  2. #2
    Banned
    Üyelik tarihi
    15-05-2022
    Mesajlar
    1.906
    Mentioned
    0 Post(s)
    Çok sağ olasın!
    DETRATAUS likes this.

 

 

Benzer Konular

  1. Cevaplar: 0
    Son Mesaj: 08-09-2023, 11:08
  2. Cevaplar: 1
    Son Mesaj: 07-09-2023, 15:40
  3. Cevaplar: 1
    Son Mesaj: 06-09-2023, 23:00
  4. Cevaplar: 1
    Son Mesaj: 06-09-2023, 22:59

Yetkileriniz

  • Yeni Mesaj yazma yetkiniz Aktif değil dir.
  • Mesajlara Cevap verme yetkiniz aktif değil dir.
  • Eklenti ekleme yetkiniz Aktif değil dir.
  • Kendi Mesajınızı değiştirme yetkiniz Aktif değildir dir.
  •  
www.divxd.us