Hoşgeldiniz, Bu forumu ilk ziyaretiniz mi? Mesaj yazabilmek için kayıt olun.
  • Login:

Divxn.com, film ve dizi indirme portalı´e Hoşgeldiniz.

Bu ilk ziyaretiniz ise, lütfen Yardım dosyasına göz atın. Forumdan tam anlamıyla yararlanmak için ücretsiz Kayıt olabilirsiniz.

1 den 2´e kadar. Toplam 2 Sayfa bulundu
  1. #1
    Senior Member
    Üyelik tarihi
    14-06-2022
    Mesajlar
    908
    Mentioned
    0 Post(s)

    Exclamation Sıkı Atışlar 2 - Hot Shots! Part Deux (1993) ~ Disney Plus - Download 1080P [Türkçe | İngilizce | Almanca Dublaj ve Altyazı Seçenekli *Forced*]









    [Sadece kayıtlı kullanıcılar linkleri görebilirler. ]

    Topper Harley, manastırda sıradan işler yaptığı sırada, görevliler tarafından bulunur. CIA, ondan Çöl Fırtınası harekatından sonra Irak'ta kalan rehineleri kurtarmak için gönderilen kurtarma ekibini ........onları da kurtarmak için gönderilen en son kurtarma ekibini Irak'tan kurtarmak için yapılacak olan bir kurtarma harekatını yönetmesini ister. Başkan Tug Benson da macerayı sevmektedir. Hot Shots, Rambo/Robocop/T2/Commando tarzı macera filmlerine espirili göndermeler yapıyor.







    [Sadece kayıtlı kullanıcılar linkleri görebilirler. ] [Sadece kayıtlı kullanıcılar linkleri görebilirler. ]


    General
    Complete name : X:\Disney+\Hot Shots! Part Deux.mkv
    Format : Matroska
    Format version : Version 4 / Version 2
    File size : 4.58 GiB
    Duration : 1 h 28 min
    Overall bit rate mode : Variable
    Overall bit rate : 7 406 kb/s
    Frame rate : 23.976 FPS
    Movie name : Hot Shots! Part Deux
    Encoded date : 2023-08-25 15:49:14 UTC
    Writing application : mkvmerge v68.0.0 ('The Curtain') 64-bit
    Writing library : libebml v1.4.2 + libmatroska v1.6.4
    Cover : Yes
    Attachments : cover.jpg

    Video
    ID : 1
    Format : AVC
    Format/Info : Advanced Video Codec
    Format profile : High@L4
    Format settings : CABAC / 4 Ref Frames
    Format settings, CABAC : Yes
    Format settings, Reference fra : 4 frames
    Codec ID : V_MPEG4/ISO/AVC
    Duration : 1 h 28 min
    Bit rate mode : Variable
    Bit rate : 6 896 kb/s
    Maximum bit rate : 12.7 Mb/s
    Width : 1 920 pixels
    Height : 1 080 pixels
    Display aspect ratio : 16:9
    Frame rate mode : Constant
    Frame rate : 23.976 (24000/1001) FPS
    Color space : YUV
    Chroma subsampling : 4:2:0
    Bit depth : 8 bits
    Scan type : Progressive
    Bits/(Pixel*Frame) : 0.139
    Stream size : 4.27 GiB (93%)
    Title : Hot Shots! Part Deux
    Default : Yes
    Forced : No
    Tagged date : 2023-09-06 03:43:45.522
    Color range : Limited
    Color primaries : BT.709
    Transfer characteristics : BT.709
    Matrix coefficients : BT.709
    ACTOR : Al Leong
    ACTOR/CHARACTER : Kick Boxing Fight Crowd Member (uncredited)
    DIRECTOR : Jim Abrahams
    DIRECTOR_OF_PHOTOGRAPHY : John R. Leonetti
    Description : Topper Harley is found to be working as an odd-job-man in a monastery. The CIA want him to lead a rescue mission into Iraq, to rescue the last rescue team, who went in to rescue the last rescue team—who went in to rescue hostages left behind after Desert Storm.
    EDITED_BY : Malcolm Campbell
    EXECUTIVE_PRODUCER : Pat Proft
    GENRE : Action, Comedy, War
    IMDB_ID : tt0107144
    PRODUCER : Bill Badalato, Greg Norberg
    PRODUCTION_DESIGNER : William A. Elliott
    Released date : 1993-05-21
    SCREENPLAY_BY : Jim Abrahams, Pat Proft
    TMDB_ID : 9255

    Audio #1
    ID : 2
    Format : AAC LC
    Format/Info : Advanced Audio Codec Low Complexity
    Codec ID : A_AAC-2
    Duration : 1 h 28 min
    Bit rate : 125 kb/s
    Channel(s) : 2 channels
    Channel layout : L R
    Sampling rate : 48.0 kHz
    Frame rate : 46.875 FPS (1024 SPF)
    Compression mode : Lossy
    Stream size : 79.4 MiB (2%)
    Title : Türkçe
    Language : Turkish
    Default : Yes
    Forced : No

    Audio #2
    ID : 3
    Format : E-AC-3
    Format/Info : Enhanced AC-3
    Commercial name : Dolby Digital Plus
    Codec ID : A_EAC3
    Duration : 1 h 28 min
    Bit rate mode : Constant
    Bit rate : 256 kb/s
    Channel(s) : 6 channels
    Channel layout : L R C LFE Ls Rs
    Sampling rate : 48.0 kHz
    Frame rate : 31.250 FPS (1536 SPF)
    Compression mode : Lossy
    Stream size : 162 MiB (3%)
    Title : English
    Language : English
    Service kind : Complete Main
    Default : No
    Forced : No

    Audio #3
    ID : 4
    Format : AAC LC
    Format/Info : Advanced Audio Codec Low Complexity
    Codec ID : A_AAC-2
    Duration : 1 h 28 min
    Bit rate : 125 kb/s
    Channel(s) : 2 channels
    Channel layout : L R
    Sampling rate : 48.0 kHz
    Frame rate : 46.875 FPS (1024 SPF)
    Compression mode : Lossy
    Stream size : 79.4 MiB (2%)
    Title : Deutsch
    Language : German
    Default : No
    Forced : No

    Text #1
    ID : 5
    Format : UTF-8
    Codec ID : S_TEXT/UTF8
    Codec ID/Info : UTF-8 Plain Text
    Duration : 1 h 28 min
    Bit rate : 55 b/s
    Frame rate : 0.160 FPS
    Count of elements : 844
    Stream size : 35.6 KiB (0%)
    Title : Deutsch
    Language : German
    Default : No
    Forced : No

    Text #2
    ID : 6
    Format : UTF-8
    Codec ID : S_TEXT/UTF8
    Codec ID/Info : UTF-8 Plain Text
    Duration : 2 min 10 s
    Bit rate : 16 b/s
    Frame rate : 0.069 FPS
    Count of elements : 9
    Stream size : 269 Bytes (0%)
    Title : en--forced--
    Language : English
    Default : No
    Forced : No

    Text #3
    ID : 7
    Format : UTF-8
    Codec ID : S_TEXT/UTF8
    Codec ID/Info : UTF-8 Plain Text
    Duration : 1 h 28 min
    Bit rate : 61 b/s
    Frame rate : 0.265 FPS
    Count of elements : 1406
    Stream size : 39.9 KiB (0%)
    Title : English [CC]
    Language : English
    Default : Yes
    Forced : No

    Text #4
    ID : 8
    Format : UTF-8
    Codec ID : S_TEXT/UTF8
    Codec ID/Info : UTF-8 Plain Text
    Duration : 1 h 28 min
    Bit rate : 52 b/s
    Frame rate : 0.160 FPS
    Count of elements : 844
    Stream size : 34.0 KiB (0%)
    Title : Türkçe
    Language : Turkish
    Default : No
    Forced : No
    Erdem TERZİ likes this.

  2. #2
    Senior Member
    Üyelik tarihi
    15-05-2022
    Mesajlar
    244
    Mentioned
    0 Post(s)
    Zamanının en iyi komedi filmlerinden bir tanesi!

 

 

Benzer Konular

  1. Cevaplar: 1
    Son Mesaj: 07-09-2023, 15:40
  2. Cevaplar: 1
    Son Mesaj: 06-09-2023, 23:52
  3. Cevaplar: 1
    Son Mesaj: 06-09-2023, 23:00
  4. Cevaplar: 1
    Son Mesaj: 06-09-2023, 22:55
  5. Cevaplar: 0
    Son Mesaj: 19-07-2023, 08:25

Yetkileriniz

  • Yeni Mesaj yazma yetkiniz Aktif değil dir.
  • Mesajlara Cevap verme yetkiniz aktif değil dir.
  • Eklenti ekleme yetkiniz Aktif değil dir.
  • Kendi Mesajınızı değiştirme yetkiniz Aktif değildir dir.
  •  
www.divxd.us