Hoşgeldiniz, Bu forumu ilk ziyaretiniz mi? Mesaj yazabilmek için kayıt olun.
  • Login:

Divxn.com, film ve dizi indirme portalı´e Hoşgeldiniz.

Bu ilk ziyaretiniz ise, lütfen Yardım dosyasına göz atın. Forumdan tam anlamıyla yararlanmak için ücretsiz Kayıt olabilirsiniz.

1 den 2´e kadar. Toplam 2 Sayfa bulundu
  1. #1
    Senior Member
    Üyelik tarihi
    14-06-2022
    Mesajlar
    2.600
    Mentioned
    0 Post(s)

    Exclamation Acımasız - Grimcutty (2022) ~ Disney Plus - Download 1080P [Türkçe | İngilizce | Almanca Dublaj ve Altyazı Seçenekli *Forced*]









    [Sadece kayıtlı kullanıcılar linkleri görebilirler. ]

    Banliyöde yaşayan bir genç kız ve küçük erkek kardeşi, ebeveynlerinin histerisiyle hayata geçirilmiş korkunç bir internet şakasını durdurmak zorundadır.










    General
    Complete name : X:\Disney+\Grimcutty.mkv
    Format : Matroska
    Format version : Version 4 / Version 2
    File size : 4.41 GiB
    Duration : 1 h 40 min
    Overall bit rate mode : Variable
    Overall bit rate : 6 300 kb/s
    Frame rate : 24.000 FPS
    Movie name : Grimcutty
    Encoded date : 2023-09-06 09:26:38 UTC
    Writing application : mkvmerge v68.0.0 ('The Curtain') 64-bit
    Writing library : libebml v1.4.2 + libmatroska v1.6.4

    Video
    ID : 1
    Format : AVC
    Format/Info : Advanced Video Codec
    Format profile : High@L4
    Format settings : CABAC / 4 Ref Frames
    Format settings, CABAC : Yes
    Format settings, Reference fra : 4 frames
    Codec ID : V_MPEG4/ISO/AVC
    Duration : 1 h 40 min
    Bit rate mode : Variable
    Bit rate : 5 919 kb/s
    Maximum bit rate : 12.7 Mb/s
    Width : 1 920 pixels
    Height : 1 080 pixels
    Display aspect ratio : 16:9
    Frame rate mode : Constant
    Frame rate : 24.000 FPS
    Color space : YUV
    Chroma subsampling : 4:2:0
    Bit depth : 8 bits
    Scan type : Progressive
    Bits/(Pixel*Frame) : 0.119
    Stream size : 4.14 GiB (94%)
    Default : Yes
    Forced : No
    Color range : Limited
    Color primaries : BT.709
    Transfer characteristics : BT.709
    Matrix coefficients : BT.709

    Audio #1
    ID : 2
    Format : AAC LC
    Format/Info : Advanced Audio Codec Low Complexity
    Codec ID : A_AAC-2
    Duration : 1 h 40 min
    Bit rate : 125 kb/s
    Channel(s) : 2 channels
    Channel layout : L R
    Sampling rate : 48.0 kHz
    Frame rate : 46.875 FPS (1024 SPF)
    Compression mode : Lossy
    Stream size : 89.8 MiB (2%)
    Title : Türkçe
    Language : Turkish
    Default : Yes
    Forced : No

    Audio #2
    ID : 3
    Format : AAC LC
    Format/Info : Advanced Audio Codec Low Complexity
    Codec ID : A_AAC-2
    Duration : 1 h 40 min
    Bit rate : 125 kb/s
    Channel(s) : 2 channels
    Channel layout : L R
    Sampling rate : 48.0 kHz
    Frame rate : 46.875 FPS (1024 SPF)
    Compression mode : Lossy
    Stream size : 89.8 MiB (2%)
    Title : English
    Language : English
    Default : No
    Forced : No

    Audio #3
    ID : 4
    Format : AAC LC
    Format/Info : Advanced Audio Codec Low Complexity
    Codec ID : A_AAC-2
    Duration : 1 h 40 min
    Bit rate : 125 kb/s
    Channel(s) : 2 channels
    Channel layout : L R
    Sampling rate : 48.0 kHz
    Frame rate : 46.875 FPS (1024 SPF)
    Compression mode : Lossy
    Stream size : 89.8 MiB (2%)
    Title : Deutsch
    Language : German
    Default : No
    Forced : No

    Text #1
    ID : 5
    Format : UTF-8
    Codec ID : S_TEXT/UTF8
    Codec ID/Info : UTF-8 Plain Text
    Duration : 1 h 38 min
    Bit rate : 51 b/s
    Frame rate : 0.188 FPS
    Count of elements : 1113
    Stream size : 37.3 KiB (0%)
    Title : Deutsch
    Language : German
    Default : No
    Forced : No

    Text #2
    ID : 6
    Format : UTF-8
    Codec ID : S_TEXT/UTF8
    Codec ID/Info : UTF-8 Plain Text
    Duration : 1 h 40 min
    Bit rate : 64 b/s
    Frame rate : 0.291 FPS
    Count of elements : 1749
    Stream size : 47.6 KiB (0%)
    Title : English [CC]
    Language : English
    Default : Yes
    Forced : No

    Text #3
    ID : 7
    Format : UTF-8
    Codec ID : S_TEXT/UTF8
    Codec ID/Info : UTF-8 Plain Text
    Duration : 1 h 23 min
    Bit rate : 3 b/s
    Frame rate : 0.012 FPS
    Count of elements : 61
    Stream size : 2.14 KiB (0%)
    Title : tr--forced--
    Language : Turkish
    Default : No
    Forced : No

    Text #4
    ID : 8
    Format : UTF-8
    Codec ID : S_TEXT/UTF8
    Codec ID/Info : UTF-8 Plain Text
    Duration : 1 h 38 min
    Bit rate : 51 b/s
    Frame rate : 0.166 FPS
    Count of elements : 985
    Stream size : 37.2 KiB (0%)
    Title : Türkçe
    Language : Turkish
    Default : No
    Forced : No
    Dikkat! : Bu İçerik Eski!
    Bu İçerik 90 günden daha eski. Linkler artık çalışmıyor olabilir.
    Erdem TERZİ likes this.

  2. #2
    Banned
    Üyelik tarihi
    15-05-2022
    Mesajlar
    1.906
    Mentioned
    0 Post(s)
    Yine yapacağını yapmışsın sevgili DETRATAUS!

 

 

Benzer Konular

  1. Cevaplar: 1
    Son Mesaj: 06-09-2023, 23:00
  2. Cevaplar: 1
    Son Mesaj: 06-09-2023, 22:59
  3. Cevaplar: 1
    Son Mesaj: 06-09-2023, 22:55
  4. Cevaplar: 0
    Son Mesaj: 20-08-2023, 09:24
  5. Cevaplar: 0
    Son Mesaj: 19-07-2023, 08:25

Yetkileriniz

  • Yeni Mesaj yazma yetkiniz Aktif değil dir.
  • Mesajlara Cevap verme yetkiniz aktif değil dir.
  • Eklenti ekleme yetkiniz Aktif değil dir.
  • Kendi Mesajınızı değiştirme yetkiniz Aktif değildir dir.
  •  
www.divxd.us