Hoşgeldiniz, Bu forumu ilk ziyaretiniz mi? Mesaj yazabilmek için kayıt olun.
  • Login:

Divxn.com, film ve dizi indirme portalı´e Hoşgeldiniz.

Bu ilk ziyaretiniz ise, lütfen Yardım dosyasına göz atın. Forumdan tam anlamıyla yararlanmak için ücretsiz Kayıt olabilirsiniz.

1 den 2´e kadar. Toplam 2 Sayfa bulundu
  1. #1
    Senior Member
    Üyelik tarihi
    14-06-2022
    Mesajlar
    2.601
    Mentioned
    0 Post(s)

    Exclamation Küçük Deniz Kızı - The Little Mermaid (2023) ~ Disney Plus - Download 720P [Türkçe | İngilizce | Almanca Dublaj ve Altyazı Seçenekli *Forced*]









    [Sadece kayıtlı kullanıcılar linkleri görebilirler. ]

    Küçük Deniz Kızı, insan olmak isteyen küçük deniz kızı Ariel’in hikayesini konu ediyor. Ariel, Kral Triton'un en küçük ve en cesur kızıdır. Onun en büyük arzusu denizin ötesindeki dünyayı öğrenmektir. Bir gün ana karayı ziyaret eden Ariel, bu sırada Prens Eric'e aşık olur. Deniz kızlarının insanlarla temas kurması yasaktır ama Ariel kalbinin sesini dinlemeye karar verir. Bu amaçla karada yaşama şansı elde etmek için cadı Ursula ile anlaşma yapar. Ancak çok geçmeden hem kendisini hem de babasının hayatını tehlikeye sokar.







    [Sadece kayıtlı kullanıcılar linkleri görebilirler. ]


    General
    Complete name : X:\Disney+\The Little Mermaid.mkv
    Format : Matroska
    Format version : Version 4 / Version 2
    File size : 3.93 GiB
    Duration : 2 h 15 min
    Overall bit rate mode : Variable
    Overall bit rate : 4 160 kb/s
    Frame rate : 23.976 FPS
    Movie name : The Little Mermaid
    Encoded date : 2023-09-06 09:13:19 UTC
    Writing application : mkvmerge v68.0.0 ('The Curtain') 64-bit
    Writing library : libebml v1.4.2 + libmatroska v1.6.4

    Video
    ID : 1
    Format : AVC
    Format/Info : Advanced Video Codec
    Format profile : [email protected]
    Format settings : CABAC / 4 Ref Frames
    Format settings, CABAC : Yes
    Format settings, Reference fra : 4 frames
    Codec ID : V_MPEG4/ISO/AVC
    Duration : 2 h 15 min
    Bit rate mode : Variable
    Bit rate : 3 779 kb/s
    Maximum bit rate : 6 375 kb/s
    Width : 1 280 pixels
    Height : 720 pixels
    Display aspect ratio : 16:9
    Frame rate mode : Constant
    Frame rate : 23.976 (24000/1001) FPS
    Color space : YUV
    Chroma subsampling : 4:2:0
    Bit depth : 8 bits
    Scan type : Progressive
    Bits/(Pixel*Frame) : 0.171
    Stream size : 3.57 GiB (91%)
    Default : Yes
    Forced : No
    Color range : Limited
    Color primaries : BT.709
    Transfer characteristics : BT.709
    Matrix coefficients : BT.709

    Audio #1
    ID : 2
    Format : AAC LC
    Format/Info : Advanced Audio Codec Low Complexity
    Codec ID : A_AAC-2
    Duration : 2 h 15 min
    Bit rate : 125 kb/s
    Channel(s) : 2 channels
    Channel layout : L R
    Sampling rate : 48.0 kHz
    Frame rate : 46.875 FPS (1024 SPF)
    Compression mode : Lossy
    Stream size : 121 MiB (3%)
    Title : Türkçe
    Language : Turkish
    Default : Yes
    Forced : No

    Audio #2
    ID : 3
    Format : AAC LC
    Format/Info : Advanced Audio Codec Low Complexity
    Codec ID : A_AAC-2
    Duration : 2 h 15 min
    Bit rate : 125 kb/s
    Channel(s) : 2 channels
    Channel layout : L R
    Sampling rate : 48.0 kHz
    Frame rate : 46.875 FPS (1024 SPF)
    Compression mode : Lossy
    Stream size : 121 MiB (3%)
    Title : English
    Language : English
    Default : No
    Forced : No

    Audio #3
    ID : 4
    Format : AAC LC
    Format/Info : Advanced Audio Codec Low Complexity
    Codec ID : A_AAC-2
    Duration : 2 h 15 min
    Bit rate : 125 kb/s
    Channel(s) : 2 channels
    Channel layout : L R
    Sampling rate : 48.0 kHz
    Frame rate : 46.875 FPS (1024 SPF)
    Compression mode : Lossy
    Stream size : 121 MiB (3%)
    Title : Deutsch
    Language : German
    Default : No
    Forced : No

    Text #1
    ID : 5
    Format : UTF-8
    Codec ID : S_TEXT/UTF8
    Codec ID/Info : UTF-8 Plain Text
    Duration : 19 s 436 ms
    Bit rate : 43 b/s
    Frame rate : 0.154 FPS
    Count of elements : 3
    Stream size : 105 Bytes (0%)
    Title : de--forced--
    Language : German
    Default : No
    Forced : No

    Text #2
    ID : 6
    Format : UTF-8
    Codec ID : S_TEXT/UTF8
    Codec ID/Info : UTF-8 Plain Text
    Duration : 2 h 13 min
    Bit rate : 54 b/s
    Frame rate : 0.228 FPS
    Count of elements : 1830
    Stream size : 53.0 KiB (0%)
    Title : Deutsch
    Language : German
    Default : No
    Forced : No

    Text #3
    ID : 7
    Format : UTF-8
    Codec ID : S_TEXT/UTF8
    Codec ID/Info : UTF-8 Plain Text
    Duration : 2 h 8 min
    Bit rate : 71 b/s
    Frame rate : 0.310 FPS
    Count of elements : 2378
    Stream size : 67.0 KiB (0%)
    Title : English [CC]
    Language : English
    Default : Yes
    Forced : No

    Text #4
    ID : 8
    Format : UTF-8
    Codec ID : S_TEXT/UTF8
    Codec ID/Info : UTF-8 Plain Text
    Duration : 19 s 436 ms
    Bit rate : 42 b/s
    Frame rate : 0.154 FPS
    Count of elements : 3
    Stream size : 103 Bytes (0%)
    Title : tr--forced--
    Language : Turkish
    Default : No
    Forced : No

    Text #5
    ID : 9
    Format : UTF-8
    Codec ID : S_TEXT/UTF8
    Codec ID/Info : UTF-8 Plain Text
    Duration : 2 h 13 min
    Bit rate : 52 b/s
    Frame rate : 0.228 FPS
    Count of elements : 1829
    Stream size : 51.4 KiB (0%)
    Title : Türkçe
    Language : Turkish
    Default : No
    Forced : No
    Dikkat! : Bu İçerik Eski!
    Bu İçerik 90 günden daha eski. Linkler artık çalışmıyor olabilir.
    Erdem TERZİ likes this.

  2. #2
    Banned
    Üyelik tarihi
    15-05-2022
    Mesajlar
    1.907
    Mentioned
    0 Post(s)
    Ve bir muhteşem paylaşım daha sevgili DETRATAUS!
    Konu Erdem TERZİ tarafından (06-09-2023 Saat 23:03 ) değiştirilmiştir. Sebep: İmla Hatasını Giderme!

 

 

Benzer Konular

  1. Cevaplar: 1
    Son Mesaj: 06-09-2023, 22:59
  2. Cevaplar: 1
    Son Mesaj: 06-09-2023, 22:55
  3. Cevaplar: 0
    Son Mesaj: 20-08-2023, 09:24
  4. Cevaplar: 0
    Son Mesaj: 20-08-2023, 09:20
  5. Cevaplar: 0
    Son Mesaj: 20-08-2023, 09:13

Yetkileriniz

  • Yeni Mesaj yazma yetkiniz Aktif değil dir.
  • Mesajlara Cevap verme yetkiniz aktif değil dir.
  • Eklenti ekleme yetkiniz Aktif değil dir.
  • Kendi Mesajınızı değiştirme yetkiniz Aktif değildir dir.
  •  
www.divxd.us