Hoşgeldiniz, Bu forumu ilk ziyaretiniz mi? Mesaj yazabilmek için kayıt olun.
  • Login:

Divxn.com, film ve dizi indirme portalı´e Hoşgeldiniz.

Bu ilk ziyaretiniz ise, lütfen Yardım dosyasına göz atın. Forumdan tam anlamıyla yararlanmak için ücretsiz Kayıt olabilirsiniz.

1 den 2´e kadar. Toplam 2 Sayfa bulundu
  1. #1
    Senior Member
    Üyelik tarihi
    14-06-2022
    Mesajlar
    2.600
    Mentioned
    0 Post(s)

    Exclamation Aşkı Seç - Choose Love (2023) ~ NETFLIX - Download 1080P [Türkçe | İngilizce | Almanca Dublaj ve Altyazı Seçenekli *Forced*]









    [Sadece kayıtlı kullanıcılar linkleri görebilirler. ]

    Cami Conway, hayatta her şeye sahip olan bir kadındır. İyi bir işe ve harika bir erkek arkadaşa sahip olan Cami’nin Paul ile ilişkisi evliliğe doğru gitmektedir. Ancak o yine de bir şeylerin eksik olduğunu hisseder. Onun bu hisleri sadece kaçırma korkusu ve onunla birlikte gelen bağlılık korkusu mudur? Yoksa bir zamanlar hayalini kurduğu, uzun süre önce terk ettiği şarkıcılık kariyeri gibi daha da iyi bir kariyeri mi kaçırıyor? Hayatını aşkı gerçekten Paul mü yoksa stüdyosuna giren ve ona delicesine aşık olan İngiliz rock yıldızı Rex Galier mı? Kendisini ikilemde bulan Cami, hayatı için doğru kararı verebilecek midir?







    [Sadece kayıtlı kullanıcılar linkleri görebilirler. ]


    General
    Complete name : X:\Netflix\Choose Love.mkv
    Format : Matroska
    Format version : Version 4 / Version 2
    File size : 13.6 GiB
    Duration : 4 h 50 min
    Overall bit rate mode : Variable
    Overall bit rate : 6 690 kb/s
    Frame rate : 23.976 FPS
    Movie name : Choose Love
    Description : The steady boyfriend. The one who got away. The charming rock star. Who will Cami choose? In this interactive rom-com, her love life is in your hands.
    Writing application : Lavf58.29.100
    Writing library : Lavf58.29.100
    ErrorDetectionType : Per level 1
    Attachments : 81175265_1.jpg

    Video
    ID : 1
    Format : AVC
    Format/Info : Advanced Video Codec
    Format profile : Main@L4
    Format settings : CABAC / 1 Ref Frames
    Format settings, CABAC : Yes
    Format settings, Reference fra : 1 frame
    Codec ID : V_MPEG4/ISO/AVC
    Duration : 4 h 50 min
    Bit rate mode : Variable
    Bit rate : 4 637 kb/s
    Maximum bit rate : 6 000 kb/s
    Width : 1 920 pixels
    Height : 1 080 pixels
    Display aspect ratio : 16:9
    Frame rate mode : Constant
    Frame rate : 23.976 (24000/1001) FPS
    Color space : YUV
    Chroma subsampling : 4:2:0
    Bit depth : 8 bits
    Scan type : Progressive
    Bits/(Pixel*Frame) : 0.093
    Stream size : 9.40 GiB (69%)
    Default : No
    Forced : No

    Audio #1
    ID : 2
    Format : E-AC-3
    Format/Info : Enhanced AC-3
    Commercial name : Dolby Digital Plus
    Codec ID : A_EAC3
    Duration : 4 h 50 min
    Bit rate mode : Constant
    Bit rate : 640 kb/s
    Channel(s) : 6 channels
    Channel layout : L R C LFE Ls Rs
    Sampling rate : 48.0 kHz
    Frame rate : 31.250 FPS (1536 SPF)
    Bit depth : 32 bits
    Compression mode : Lossy
    Delay relative to video : -42 ms
    Stream size : 1.30 GiB (10%)
    Title : Turkish
    Language : Turkish
    Service kind : Complete Main
    Default : No
    Forced : No

    Audio #2
    ID : 3
    Format : E-AC-3
    Format/Info : Enhanced AC-3
    Commercial name : Dolby Digital Plus
    Codec ID : A_EAC3
    Duration : 4 h 50 min
    Bit rate mode : Constant
    Bit rate : 640 kb/s
    Channel(s) : 6 channels
    Channel layout : L R C LFE Ls Rs
    Sampling rate : 48.0 kHz
    Frame rate : 31.250 FPS (1536 SPF)
    Bit depth : 32 bits
    Compression mode : Lossy
    Delay relative to video : -42 ms
    Stream size : 1.30 GiB (10%)
    Title : German
    Language : German
    Service kind : Complete Main
    Default : No
    Forced : No

    Audio #3
    ID : 4
    Format : E-AC-3
    Format/Info : Enhanced AC-3
    Commercial name : Dolby Digital Plus
    Codec ID : A_EAC3
    Duration : 4 h 50 min
    Bit rate mode : Constant
    Bit rate : 640 kb/s
    Channel(s) : 6 channels
    Channel layout : L R C LFE Ls Rs
    Sampling rate : 48.0 kHz
    Frame rate : 31.250 FPS (1536 SPF)
    Bit depth : 32 bits
    Compression mode : Lossy
    Delay relative to video : -42 ms
    Stream size : 1.30 GiB (10%)
    Title : English [Original]
    Language : English
    Service kind : Complete Main
    Default : Yes
    Forced : No

    Text #1
    ID : 5
    Format : ASS
    Codec ID : S_TEXT/ASS
    Codec ID/Info : Advanced Sub Station Alpha
    Duration : 4 h 48 min
    Compression mode : Lossless
    Title : Deutsch
    Language : German
    Default : No
    Forced : No

    Text #2
    ID : 6
    Format : ASS
    Codec ID : S_TEXT/ASS
    Codec ID/Info : Advanced Sub Station Alpha
    Duration : 4 h 48 min
    Compression mode : Lossless
    Title : Turkish (Forced Narrative)
    Language : Turkish
    Default : No
    Forced : No

    Text #3
    ID : 7
    Format : ASS
    Codec ID : S_TEXT/ASS
    Codec ID/Info : Advanced Sub Station Alpha
    Duration : 4 h 27 min
    Compression mode : Lossless
    Title : Deutsch (Forced Narrative)
    Language : German
    Default : No
    Forced : No

    Text #4
    ID : 8
    Format : ASS
    Codec ID : S_TEXT/ASS
    Codec ID/Info : Advanced Sub Station Alpha
    Duration : 4 h 48 min
    Compression mode : Lossless
    Title : Turkish
    Language : Turkish
    Default : No
    Forced : No

    Text #5
    ID : 9
    Format : ASS
    Codec ID : S_TEXT/ASS
    Codec ID/Info : Advanced Sub Station Alpha
    Duration : 4 h 48 min
    Compression mode : Lossless
    Title : English (CC)
    Language : English
    Default : No
    Forced : No
    Dikkat! : Bu İçerik Eski!
    Bu İçerik 90 günden daha eski. Linkler artık çalışmıyor olabilir.
    Erdem TERZİ likes this.

  2. #2
    Banned
    Üyelik tarihi
    15-05-2022
    Mesajlar
    1.906
    Mentioned
    0 Post(s)
    Çok iyi paylaşımlar yapıyorsun sevgili DETRATAUS!

 

 

Benzer Konular

  1. Cevaplar: 1
    Son Mesaj: 03-11-2023, 07:57
  2. Cevaplar: 1
    Son Mesaj: 03-11-2023, 07:57
  3. Cevaplar: 1
    Son Mesaj: 03-11-2023, 07:57
  4. Cevaplar: 1
    Son Mesaj: 03-11-2023, 07:56
  5. Cevaplar: 1
    Son Mesaj: 03-11-2023, 07:56

Yetkileriniz

  • Yeni Mesaj yazma yetkiniz Aktif değil dir.
  • Mesajlara Cevap verme yetkiniz aktif değil dir.
  • Eklenti ekleme yetkiniz Aktif değil dir.
  • Kendi Mesajınızı değiştirme yetkiniz Aktif değildir dir.
  •  
www.divxd.us